Скачать через торрент Динозавр Серии: 1-10 из 10 Фильм бесплатно в хорошем качестве torrent

Скачивайте на UnionPeer.org фильмы через торрент без регистрации. Новинки кино в хорошем качестве через торрент. На UnionPeer.org можно скачать через торрент фильмы 2014 и 2015 годов. Самые новые фильмы.

Скачать торрент Динозавр Серии: 1-10 из 10 бесплатно через .torrent фильм мультфильм сериал

Статистика раздачи
Размер:  5.9 GB   |    Зарегистрирован:  2 месяца 6 дней   |    .torrent скачан:  580 раз   |   
Раздают:  1  
   
загрузка...
 
Автор Сообщение

aleksan55

avatar aleksan55


Динозавр

Год выпуска: 2018
Страна: Россия | Продюсерский центр Сергея Жигунова
Жанр: комедия, триллер, детектив
Продолжительность: 00:46:00
Субтитры: нет
Режиссёр: Евгений Серов, Всеволод Аравин, Олег Компасов

В ролях: Андрей Смирнов, Александр Панкратов-Чёрный, Евгений Миллер, Анна Васильева, Максим Литовченко, Михаил Евланов, Ольга Тумайкина, Илья Любимов, Сергей Епишев, Александр Берда, Илья Ильин, Роман Полянский, Александра Мареева, Ольга Филиппова, Юрий Чурсин, Елена Сафонова, Геннадий Яковлев, Сергей Жигунов, Валерий Новиков, Александр Вдовин, Юрий Сысоев, Светлана Немоляева, Галина Петрова, Борис Смолкин, Борис Невзоров, Иван Лакшин, Борис Токарев, Сергей Сосновский, Михаил Горский
Описание:
Престарелый криминальный авторитет Семен Тимофеевич Бабушкин, о чьем воровском таланте в свое время слагали легенды, последние 35 лет Семен Тимофеевич не выходил из тюрьмы, предпочитая ее свободе, где у него не осталось ни друзей, ни родных. Но однажды Бабушкин получает письмо, из которого узнает, что у него, оказывается, все-таки есть на воле кровиночка, сын Слава.

Качество: SATRip-AVC
Формат: MKV
Видео кодек: H.264
Аудио кодек: AC3
Видео: MPEG4 Video (H264), 1024x576, 25fps,1700 Kbps,bit/pixel 0.236
Аудио : AC3 48000Hz, stereo, 192 kbps,2 ch
Общее
Уникальный идентификатор : 205767238663736821757120618652475393246 (0x9ACD5422837EDD2E820FAE50A7E904DE)
Полное имя : E:\Динозавр\01 серия_Динозавр_rip by_Aleksan55.mkv
Формат : Matroska
Версия формата : Version 2
Размер файла : 633 Мбайт
Продолжительность : 46 м. 44 с.
Общий поток : 1894 Кбит/сек
Дата кодирования : UTC 2018-10-08 15:17:21
Программа кодирования : mkvmerge v7.8.0 ('River Man') 32bit built on Apr 3 2015 12:11:22
Библиотека кодирования : libebml v1.3.1 + libmatroska v1.4.2

Видео
Идентификатор : 1
Формат : AVC
Формат/Информация : Advanced Video Codec
Профиль формата : High@L4.1
Параметр CABAC формата : Да
Параметр ReFrames формата : 14 кадров
Идентификатор кодека : V_MPEG4/ISO/AVC
Продолжительность : 46 м. 44 с.
Битрейт : 1700 Кбит/сек
Ширина : 720 пикселей
Высота : 400 пикселей
Соотношение сторон : 16:9
Режим частоты кадров : Постоянный
Частота кадров : 25,000 кадров/сек
Цветовое пространство : YUV
Субдискретизация насыщенности : 4:2:0
Битовая глубина : 8 бит
Тип развёртки : Прогрессивная
Бит/(Пиксели*Кадры) : 0.236
Размер потока : 556 Мбайт (88%)
Библиотека кодирования : x264 core 146 r2538 121396c
Настройки программы : cabac=1 / ref=14 / deblock=1:-1:-1 / analyse=0x3:0x133 / me=umh / subme=9 / psy=1 / psy_rd=0.90:0.15 / mixed_ref=0 / me_range=32 / chroma_me=1 / trellis=2 / 8x8dct=1 / cqm=0 / deadzone=21,11 / fast_pskip=0 / chroma_qp_offset=-3 / threads=12 / lookahead_threads=1 / sliced_threads=0 / nr=0 / decimate=0 / interlaced=0 / bluray_compat=0 / constrained_intra=0 / bframes=14 / b_pyramid=2 / b_adapt=1 / b_bias=0 / direct=3 / weightb=1 / open_gop=0 / weightp=2 / keyint=250 / keyint_min=25 / scenecut=40 / intra_refresh=0 / rc_lookahead=40 / rc=2pass / mbtree=1 / bitrate=1700 / ratetol=1.0 / qcomp=0.60 / qpmin=0 / qpmax=39 / qpstep=4 / cplxblur=20.0 / qblur=0.5 / ip_ratio=1.40 / aq=1:1.20
Default : Да
Forced : Нет
Цветовой диапазон : Limited
Основные цвета : BT.601 PAL
Характеристики трансфера : BT.470 System B, BT.470 System G
Коэффициенты матрицы : BT.601

Аудио
Идентификатор : 2
Формат : AC-3
Формат/Информация : Audio Coding 3
Расширение режима : CM (complete main)
Параметр Endianness формата : Big
Идентификатор кодека : A_AC3
Продолжительность : 46 м. 44 с.
Вид битрейта : Постоянный
Битрейт : 192 Кбит/сек
Каналы : 2 канала
Расположение каналов : Front: L R
Частота : 48,0 КГц
Частота кадров : 31,250 кадров/сек (1536 spf)
Битовая глубина : 16 бит
Метод сжатия : С потерями
Размер потока : 64,2 Мбайт (10%)
Default : Да
Forced : Нет


Добавлены 9-10 серия.


Трекер:  [ 12-Окт-2018 17:59 ]

  

Скачать .torrent

Размер .torrent файла 31 KB


Размер: 5.9 GB
Хэш (hash) релиза: c5d6ea4aa096513d9be13efea8aafa7ac70ab20f
Подписка на обновления:

Еще никто не оставлял запись к записи скачать торрент Динозавр Серии: 1-10 из 10 . Будь первым!

!Обратная связь