Скачать через торрент Она не только болтает, она всех мочит Она больше не говорит, она стреляет Фильм бесплатно в хорошем качестве torrent

Скачивайте на UnionPeer.org фильмы через торрент без регистрации. Новинки кино в хорошем качестве через торрент. На UnionPeer.org можно скачать через торрент фильмы 2014 и 2015 годов. Самые новые фильмы.

Скачать торрент Она не только болтает, она всех мочит Она больше не говорит, она стреляет бесплатно через .torrent фильм мультфильм сериал

Статистика раздачи
Размер:  743 MB   |    Зарегистрирован:  5 лет 3 месяца   |    .torrent скачан:  20 раз   |   
Раздают:  1  
   
загрузка...
 
Автор Сообщение

Galfimbul

avatar Galfimbul


Она не только болтает, она всех мочит / Elle cause plus, elle flingue

Страна: Италия, Франция
Жанр: комедия
Год выпуска: 1972
Продолжительность: 01:23:10

Перевод: Профессиональный (двухголосый закадровый)
Cубтитры: нет
Режиссер: Мишель Одиар / Michel Audiard

В ролях:
Анни Жирардо
Бернар Блие
Морис Биро
Роже Карель
Жан Карме
Дарри Коул
Мишель Галабрю
Андре Пусс
Катрин Сами
Чарльз Саутвуд
...
Описание: История гангстерши в исполнении Анни Жирардо, полная хитросплетений и неожиданных событий.

Доп. информация: исходник

Сэмпл: http://sendfile.su/874928

Качество видео: DVDRip
Формат видео: AVI

Видео: Xvid, 656x400 25fps, 1111 Kbps Bits/Pixel : 0.169
Аудио: MP3, 48 kHz, 2 channels, 128 kbps
General
Complete name : Z:\Рипы_745\Она не только болтает, она всех мочит _Эталон67.avi
Format : AVI
Format/Info : Audio Video Interleave
File size : 743 MiB
Duration : 1h 23mn
Overall bit rate : 1 249 Kbps
Director : Эталон67 from rutracker.org
Writing application : VirtualDubMod 1.5.10.2 (build 2540/release)
Writing library : VirtualDubMod build 2540/release

Video
ID : 0
Format : MPEG-4 Visual
Format profile : Advanced Simple@L5
Format settings, BVOP : 1
Format settings, QPel : No
Format settings, GMC : No warppoints
Format settings, Matrix : Default (H.263)
Codec ID : XVID
Codec ID/Hint : XviD
Duration : 1h 23mn
Bit rate : 1 111 Kbps
Width : 656 pixels
Height : 400 pixels
Display aspect ratio : 1.640
Frame rate : 25.000 fps
Color space : YUV
Chroma subsampling : 4:2:0
Bit depth : 8 bits
Scan type : Progressive
Compression mode : Lossy
Bits/(Pixel*Frame) : 0.169
Stream size : 661 MiB (89%)
Writing library : XviD 1.2.1 (UTC 2008-12-04)

Audio
ID : 1
Format : MPEG Audio
Format version : Version 1
Format profile : Layer 3
Codec ID : 55
Codec ID/Hint : MP3
Duration : 1h 23mn
Bit rate mode : Constant
Bit rate : 128 Kbps
Channel(s) : 2 channels
Sampling rate : 48.0 KHz
Compression mode : Lossy
Stream size : 76.1 MiB (10%)
Alignment : Aligned on interleaves
Interleave, duration : 40 ms (1.00 video frame)
Interleave, preload duration : 504 ms
Writing library : LAME3.99r
Encoding settings : -m s -V 4 -q 2 -lowpass 17 -b 128


Трекер:  [ 11-Окт-2013 11:23 ]

  

Скачать .torrent

Размер .torrent файла 29 KB


Размер: 743 MB
Хэш (hash) релиза: d7d8d648818afa5e0d73d1fe7891d6c37c93bd9e
Подписка на обновления:

Еще никто не оставлял запись к записи скачать торрент Она не только болтает, она всех мочит Она больше не говорит, она стреляет . Будь первым!

!Обратная связь